یک دو یک (۱۳۸۹–۱۳۹۰) - کارگردان : مانیا اکبری - نویسنده : مانیا اکبری، مجید اسلامی


یک دو یک (۱۳۸۹–۱۳۹۰) - کارگردان : مانیا اکبری - نویسنده : مانیا اکبری، مجید اسلامی

Yek. Do. Yek / One. Two. One (2011)  - Directed by : Mania Akbari
 - Author (Writer) : Mania Akbari, Majid Eslami



**********************


یک.دو.یک
فیلم محصول سال ۱۳۸۹–۱۳۹۰
تاریخ اکران : ۱ ژانویهٔ ۲۰۱۱ م. (ایران)
کارگردان : مانیا اکبری
مدت زمان فیلم : ۱ ساعت ۱۹ دقیقه
ژانر: دراما
تدوین‌ گر: مانیا اکبری
فیلم‌ نامه : مانیا اکبری، مجید اسلامی

بازیگران :
حسن معجونی، پیام دهکردی، ندا امیری، بهاره رهنما، مریم بوبانی، رامونا شاه، اشکان مهری، رویا جاویدنیا، فرناز رهنما، الهه حصاری، شبنم شعاریان، شقایق احمدی، فهیمه استاد، آروز روشناس، فریبا طالبی و ...



**********



روایت روابط اجتماعی انسان ها، بسیار پیچیده است و الگو بردار نیست. اما همیشه شانس انتخاب داشتن برای زن و مرد باعث می شود که آدمهای بر سر سه راهی قرار بگیرند و داستانهای مشترکی شکل بگیرد که نتیجه آن می تواند سرنوشت هریک از طرف های درگیر را تغییر دهد.

درباره فیلم

مانیا اکبری فیلمساز در سومین فیلم بلندش'یک، دو، یک' که در سال ۱۳۹۰ در ایران ساخته، به سراغ تصویر کردن یک وضعیت انسانی در مناسبات عاشقانه رفته است تا قصه زنی زخم خورده را بگوید که در مسیر انتخاب دیگری قرار گرفته است. از مانیا اکبری پیش از این هم دو فیلم متفاوت سینمایی و یک فیلم مستند در برنامه آپارات دیده بودیم . فیلم'یک، دو، یک' بعد از بیست انگشت و ده باضافه چهار، سومین فیلم بلند او در مقام نویسنده و کارگردان است.

شناسنامه فیلم

کارگردان: مانیا اکبری

فیلمنامه نویسان: مانیا اکبری، مجید اسلامی

مدیر فیلمبرداری: شهریار اسدی

تدوین: مانیا اکبری

صداگذاری و میکس: علی علویان

صدابردار: حسن زاهدی

بازیگران: ندا امیری، پیام دهکردی، حسن معجونی ، اشکان مهری، بهاره رهنما، رامونا شاه، فرناز رهنما

خلاصه داستان

فیلم 'یک، دو، یک' داستان یک دختر زیبا است که در یک مثلث عشقی گرفتار می شود. در جامعه ای که آداب و رسوم اجتماعی تاثیر زیادی روی زیبایی زن دارد، چالش او این است که بتواند اعتماد از دست رفته اش را بدست بیاورد و بتوانند به زیبایی های درونی و فیزیکی اش مسلط شود در مسیر داستان او با اتفاق هایی روبرو می شود که برای گذر از آنها نیاز دارد تصمیم های بگیرد.

ویژگی فیلم

فیلم 'یک، دو، یک'، فیلمی متفاوت از نظر ساخت با دیگر فیلم های این فیلمساز است در این فیلم داستان، فیلمنامه و بازیگران حرفه ای به کمک کارگردان می آیند تا فیلمی متفاوت با نماهای متفاوت به نمایش گذاشته شود اگرچه از نظر ساختار ادامه همان شیوه کار مانیا اکبری در فیلم های گذشته است.

درباره کارگردان:

مانیا اکبری متولد ۱۳۵۳ در تهران است. وی کار هنری اش را با نقاشی آغاز کرده و اولین بار با حضور در فیلم 'ده' عباس کیارستمی اسمش به عنوان بازیگر بر سر زبانها افتاد. وی سپس به ارائه آثارش در قالب ویدئو آرت پرداخت و پس از آن با ساخت فیلم های سینمایی متفاوتی هم چون 'بیست انگشت' ، 'ده به اضافه چهار' و 'یک دو یک' خودش را به عنوان یک فیلمساز متفاوت در این حرفه مطرح کرد . فیلمهای او در بسیاری از جشنواره های بین المللی معتبر دنیا به نمایش در آمده اند و برای وی جوایزی هم به همراه آورده اند. وی هم اکنون در لندن کار و زندگی می کند و آخرین فیلم هایش 'در کشور من مردها سینه دارند' و 'از تهران تا لندن' را آماده نمایش دارد.


******************










































































































********************************


Yek. Do. Yek / One. Two. One (2011)  - Directed by : Mania Akbari
 - Author (Writer) : Mania Akbari, Majid Eslami


Yek. Do. Yek / One. Two. One (2011)
DVDRip | MKV | 720 x 576 | AVC @ 1686 Kbps | 78 min | 1.07 Gb
Audio: Persian AC3 2.0 @ 224 Kbps | Subs: English (embedded)
Genre: Drama | Iran

In a society where all social customs are based on the beauty of a woman, her challenge is to find self confidence and inner beauty despite having lost her physical beauty.

Director: Mania Akbari
Writer: Mania Akbari, Majid Eslami 

Actors:
Neda Amiri
Payam Dehkordi
Hassan Majooni
Ashkan Mehri
Bahareh Rahnama
Farnaz Rahnama
Ramona Shah

Produced by :
Mania Akbari ... executive producer
Aboulghasem  ... executive producer
Ashrafi Amiri ... executive producer 

Sound Department :
Alireza Alavian ... sound design & mix

In a society where all social customs are based on the beauty of a woman, her challenge is to find self confidence and inner beauty despite having lost her physical beauty.

....................

Rated: N/A
Runtime: 78 min

Mania Akbari, star of Abbas Kiarostami's Ten , is one of Iran's most distinctive filmmakers and One. Two. One is her latest feature, and most confrontational work, whose banning finally led to her exile from Iran.

Composed of rhythmically structured and meticulously planned long takes, the film presents a series of conversational pieces connected to a beautiful woman named Ava whose face has been disfigured in an acid attack. Truths emerge in close up and a narrative of love, loss and renewal unfolds from each episode. Akbari questions the concept of beauty and the weight placed on it by her society but her protagonist Ava also functions as a metaphor for the scars her country bears, making this deceptively modest film inherently rich in courage and ideas.


***************



Media Info:

General
Unique ID : 212173388347925520142345069024253463409 (0x9F9F1BB322A074D0B1735F3E49164B71)
Complete name : F:\Mania Akbari - (2011) One. Two. One.mkv
Format : Matroska
Format version : Version 4 / Version 2
File size : 1.07 GiB
Duration : 1h 18mn
Overall bit rate : 1 949 Kbps
Encoded date : UTC 2015-01-11 22:46:28
Writing application : mkvmerge v7.4.0 ('Circles') 64bit built on Dec 12 2014 12:19:56
Writing library : libebml v1.3.0 + libmatroska v1.4.1
DURATION : 01:15:35.077000000
NUMBER_OF_FRAMES : 817
NUMBER_OF_BYTES : 1160178
_STATISTICS_WRITING_APP : mkvmerge v7.4.0 ('Circles') 64bit built on Dec 12 2014 12:19:56
_STATISTICS_WRITING_DATE_UTC : 2015-01-11 22:46:28
_STATISTICS_TAGS : BPS DURATION NUMBER_OF_FRAMES NUMBER_OF_BYTES

Video
ID : 1
Format : AVC
Format/Info : Advanced Video Codec
Format profile : High@L3.1
Format settings, CABAC : Yes
Format settings, ReFrames : 10 frames
Codec ID : V_MPEG4/ISO/AVC
Duration : 1h 18mn
Bit rate : 1 686 Kbps
Width : 720 pixels
Height : 576 pixels
Display aspect ratio : 16:9
Frame rate mode : Constant
Frame rate : 25.000 fps
Standard : PAL
Color space : YUV
Chroma subsampling : 4:2:0
Bit depth : 8 bits
Scan type : Progressive
Bits/(Pixel*Frame) : 0.163
Stream size : 949 MiB (87%)
Writing library : x264 core 144 r2525 40bb568
Encoding settings : cabac=1 / ref=10 / deblock=1:-3:-3 / analyse=0x3:0x133 / me=umh / subme=11 / psy=1 / psy_rd=1.00:0.15 / mixed_ref=1 / me_range=32 / chroma_me=1 / trellis=2 / 8x8dct=1 / cqm=0 / deadzone=21,11 / fast_pskip=0 / chroma_qp_offset=-3 / threads=12 / lookahead_threads=2 / sliced_threads=0 / nr=0 / decimate=0 / interlaced=0 / bluray_compat=0 / constrained_intra=0 / bframes=8 / b_pyramid=2 / b_adapt=2 / b_bias=0 / direct=3 / weightb=1 / open_gop=0 / weightp=2 / keyint=250 / keyint_min=25 / scenecut=40 / intra_refresh=0 / rc_lookahead=100 / rc=crf / mbtree=0 / crf=18.5 / qcomp=0.60 / qpmin=0 / qpmax=69 / qpstep=4 / vbv_maxrate=17500 / vbv_bufsize=17500 / crf_max=0.0 / nal_hrd=none / filler=0 / ip_ratio=1.40 / pb_ratio=1.30 / aq=1:1.00
Language : English
Default : Yes
Forced : No
DURATION : 01:18:42.120000000
NUMBER_OF_FRAMES : 118053
NUMBER_OF_BYTES : 1016022871
_STATISTICS_WRITING_APP : mkvmerge v7.4.0 ('Circles') 64bit built on Dec 12 2014 12:19:56
_STATISTICS_WRITING_DATE_UTC : 2015-01-11 22:46:28
_STATISTICS_TAGS : BPS DURATION NUMBER_OF_FRAMES NUMBER_OF_BYTES

Audio
ID : 2
Format : AC-3
Format/Info : Audio Coding 3
Mode extension : CM (complete main)
Format settings, Endianness : Big
Codec ID : A_AC3
Duration : 1h 18mn
Bit rate mode : Constant
Bit rate : 224 Kbps
Channel(s) : 2 channels
Channel positions : Front: L R
Sampling rate : 48.0 KHz
Bit depth : 16 bits
Compression mode : Lossy
Stream size : 126 MiB (11%)
Default : Yes
Forced : No

Text
ID : 3
Format : VobSub
Muxing mode : zlib
Codec ID : S_VOBSUB
Codec ID/Info : The same subtitle format used on DVDs
Language : English
Default : Yes
Forced : No


**************









Download Links :

No Mirrors Please


Nitroflare :




نظرات

پست‌های پرطرفدار